Try CumulusClips Cloud Hosting

Video upload Problem

I have choose video approval -> Auto Approve.
But when I test upload video, message appear
"Upload Step 3 - Upload Complete!
Your video has been successfully uploaded. Please allow several minutes for processing before it is available on Video sharing and Video sharing Mobile."
But for several minutes later, the video doesn't appear in my page.

I login to using user admin, check menu video -> Browse Video -> Jump to aprroved , the video is not there but when I Jump to Pending , the video is in there.
Why video doesn't appear in approved flag?

For further information I paste log here
converter.log
// Converter Called...
Values passed to encoder:
Array
(
[0] => /var/www/html/cumulusclips/cc-core/system/encode.php
[1] => --video=2
)

Validating requested video...
Establishing variables...
Verifying raw video exists...
Verifying raw video was valid size...

Preparing for: H.264 Encoding...
H.264 Encoding Command: /usr/bin/ffmpeg -i /var/www/html/cumulusclips/cc-content/uploads/temp/rLU0P3crUd7ntSHr8Laj.mp4 -vcodec libx264 -vf "scale=min(640\,iw):trunc(ow/a/2)*2" -vb 800k -acodec libfaac -ab 96k -ar 44100 -f mp4 /var/www/html/cumulusclips/cc-content/uploads/h264/rLU0P3crUd7ntSHr8Laj_temp.mp4 >> /var/www/html/cumulusclips/cc-core/logs/rLU0P3crUd7ntSHr8Laj.log 2>&1
Verifying H.264 video was created...
The temp H.264 file was not created. The id of the video is: 2

Regards,

Sihar

Comments

  • Please provide the contents of rLU0P3crUd7ntSHr8Laj.log
  • This the log

    ==================================================================
    H.264 ENCODING
    ==================================================================

    H.264 Encoding Command: /usr/bin/ffmpeg -i /var/www/html/cumulusclips/cc-content/uploads/temp/rLU0P3crUd7ntSHr8Laj.mp4 -vcodec libx264 -vf "scale=min(640\,iw):trunc(ow/a/2)*2" -vb 800k -acodec libfaac -ab 96k -ar 44100 -f mp4 /var/www/html/cumulusclips/cc-content/uploads/h264/rLU0P3crUd7ntSHr8Laj_temp.mp4 >> /var/www/html/cumulusclips/cc-core/logs/rLU0P3crUd7ntSHr8Laj.log 2>&1

    H.264 Encoding Output:


    ffmpeg version 0.8.17-4:0.8.17-0ubuntu0.12.04.1, Copyright (c) 2000-2014 the Libav developers
    built on Mar 16 2015 13:28:23 with gcc 4.6.3
    The ffmpeg program is only provided for script compatibility and will be removed
    in a future release. It has been deprecated in the Libav project to allow for
    incompatible command line syntax improvements in its replacement called avconv
    (see Changelog for details). Please use avconv instead.
    Input #0, mov,mp4,m4a,3gp,3g2,mj2, from '/var/www/html/cumulusclips/cc-content/uploads/temp/rLU0P3crUd7ntSHr8Laj.mp4':
    Metadata:
    major_brand : mp42
    minor_version : 0
    compatible_brands: isommp42
    creation_time : 2015-06-13 07:18:40
    Duration: 00:00:30.04, start: 0.000000, bitrate: 738 kb/s
    Stream #0.0(und): Video: h264 (Constrained Baseline), yuv420p, 640x360 [PAR 1:1 DAR 16:9], 639 kb/s, 23.98 fps, 23.98 tbr, 24k tbn, 47.95 tbc
    Stream #0.1(eng): Audio: aac, 44100 Hz, stereo, s16, 96 kb/s
    Metadata:
    creation_time : 2015-06-13 07:18:40
    Unknown encoder 'libx264'
  • You're using an old version of FFMPEG. Please follow the instructions in the following post to upgrade to the latest version:

    http://cumulusclips.org/forums/index.php?p=/discussion/1370/how-to-use-static-ffmpeg-build-with-cumulusclip
  • Please help me,
    videos are in pending.




    ==================================================================
    H.264 ENCODING
    ==================================================================

    H.264 Encoding Command: /home/alteryou/public_html/cumulusclips/cc-core/system/bin/ffmpeg-64-bit/ffmpeg -i /home/alteryou/public_html/cumulusclips/cc-content/uploads/temp/3yvsOVsgvsPuauIIbo8k.mp4 -vcodec libx264 -vf "scale=min(640\,iw):trunc(ow/a/2)*2" -vb 800k -acodec libvo_aacenc -ab 96k -ar 44100 -f mp4 /home/alteryou/public_html/cumulusclips/cc-content/uploads/h264/3yvsOVsgvsPuauIIbo8k_temp.mp4 >> /home/alteryou/public_html/cumulusclips/cc-core/logs/3yvsOVsgvsPuauIIbo8k.log 2>&1

    H.264 Encoding Output:


    ffmpeg version 3.1-static http://johnvansickle.com/ffmpeg/ Copyright (c) 2000-2016 the FFmpeg developers
    built with gcc 5.4.0 (Debian 5.4.0-4) 20160609
    configuration: --enable-gpl --enable-version3 --enable-static --disable-debug --enable-libmp3lame --enable-libx264 --enable-libx265 --enable-libwebp --enable-libspeex --enable-libvorbis --enable-libvpx --enable-libfreetype --enable-fontconfig --enable-libxvid --enable-libopencore-amrnb --enable-libopencore-amrwb --enable-libtheora --enable-libvo-amrwbenc --enable-gray --enable-libopenjpeg --enable-libopus --enable-libass --enable-gnutls --enable-libvidstab --enable-libsoxr --enable-frei0r --enable-libfribidi --disable-indev=sndio --disable-outdev=sndio --enable-librtmp --enable-libmfx --enable-libzimg --cc=gcc
    libavutil 55. 27.100 / 55. 27.100
    libavcodec 57. 48.101 / 57. 48.101
    libavformat 57. 40.101 / 57. 40.101
    libavdevice 57. 0.101 / 57. 0.101
    libavfilter 6. 46.102 / 6. 46.102
    libswscale 4. 1.100 / 4. 1.100
    libswresample 2. 1.100 / 2. 1.100
    libpostproc 54. 0.100 / 54. 0.100
    Input #0, mov,mp4,m4a,3gp,3g2,mj2, from '/home/alteryou/public_html/cumulusclips/cc-content/uploads/temp/3yvsOVsgvsPuauIIbo8k.mp4':
    Metadata:
    major_brand : isom
    minor_version : 512
    compatible_brands: isomiso2avc1mp41
    creation_time : 1970-01-01 00:00:00
    encoder : Lavf53.24.2
    Duration: 00:00:05.31, start: 0.000000, bitrate: 1589 kb/s
    Stream #0:0(und): Video: h264 (Main) (avc1 / 0x31637661), yuv420p, 1280x720 [SAR 1:1 DAR 16:9], 1205 kb/s, 25 fps, 25 tbr, 12800 tbn, 50 tbc (default)
    Metadata:
    creation_time : 1970-01-01 00:00:00
    handler_name : VideoHandler
    Stream #0:1(und): Audio: aac (LC) (mp4a / 0x6134706D), 48000 Hz, 5.1, fltp, 384 kb/s (default)
    Metadata:
    creation_time : 1970-01-01 00:00:00
    handler_name : SoundHandler
    Unknown encoder 'libvo_aacenc'
  • @waleedraza Go to admin panel - settings - video - h.264 and replace libvo_accenc with just aac
Sign In or Register to comment.