successful upload but suddenly not appear in the video

edited April 2014 in General
Hai Damian
A Great script, I have used and been successful upload culumus 30 more videos and can be played, I upload the video again the other day that there is an error uploading 100% success but the video not appear.

here is my log converter :

## Converter Called...
Values passed to encoder:
Array
(
[0] => /home/adhi/www/mepvideo/cc-core/system/encode.php
[1] => --video=43
)

Validating requested video...
Establishing variables...
Verifying raw video exists...
Verifying raw video was valid size...

Preparing for: FLV Encoding...
FLV Encoding Command: /usr/bin/ffmpeg -i /home/adhi/www/mepvideo/cc-content/uploads/temp/YkXY7FmgsUJSQIXdzHQY.avi -s 640x480 -vb 800k -ac 2 -ab 96k -ar 44100 -f flv /home/adhi/www/mepvideo/cc-content/uploads/flv/YkXY7FmgsUJSQIXdzHQY.flv >> /home/adhi/www/mepvideo/cc-core/logs/YkXY7FmgsUJSQIXdzHQY.log 2>&1
sh: line 1: 6045 Aborted (core dumped) /usr/bin/ffmpeg -i /home/adhi/www/mepvideo/cc-content/uploads/temp/YkXY7FmgsUJSQIXdzHQY.avi -s 640x480 -vb 800k -ac 2 -ab 96k -ar 44100 -f flv /home/adhi/www/mepvideo/cc-content/uploads/flv/YkXY7FmgsUJSQIXdzHQY.flv >> /home/adhi/www/mepvideo/cc-core/logs/YkXY7FmgsUJSQIXdzHQY.log 2>&1
Verifying FLV video was created...
The FLV file was not created. The id of the video is: 43

and this is my video log :

==================================================================
FLV ENCODING
==================================================================

FLV Encoding Command: /usr/bin/ffmpeg -i /home/adhi/www/mepvideo/cc-content/uploads/temp/YkXY7FmgsUJSQIXdzHQY.avi -s 640x480 -vb 800k -ac 2 -ab 96k -ar 44100 -f flv /home/adhi/www/mepvideo/cc-content/uploads/flv/YkXY7FmgsUJSQIXdzHQY.flv >> /home/adhi/www/mepvideo/cc-core/logs/YkXY7FmgsUJSQIXdzHQY.log 2>&1FLV Encoding Output:


ffmpeg version 1.1.5 Copyright (c) 2000-2013 the FFmpeg developers
built on Jun 5 2013 20:28:06 with gcc 4.4.7 (GCC) 20120313 (Red Hat 4.4.7-3)
configuration: --prefix=/usr --libdir=/usr/lib64 --shlibdir=/usr/lib64 --mandir=/usr/share/man --incdir=/usr/include --disable-debug --enable-shared --enable-gpl --enable-version3 --disable-avisynth --enable-swscale --enable-postproc --enable-avfilter --enable-avresample --enable-pthreads --enable-x11grab --enable-vaapi --enable-vdpau --enable-runtime-cpudetect --enable-bzlib --enable-fontconfig --enable-frei0r --enable-libass --enable-libbluray --enable-libcelt --enable-libcdio --enable-libfreetype --enable-libiec61883 --enable-libopencv --enable-libmodplug --enable-libopencore-amrnb --enable-libopencore-amrwb --enable-libdc1394 --enable-libfaac --enable-libgsm --enable-libmp3lame --enable-libopenjpeg --enable-libopus --enable-libpulse --enable-librtmp --enable-libschroedinger --enable-libspeex --disable-libsoxr --enable-libtheora --enable-libtwolame --enable-libvpx --enable-libv4l2 --enable-libx264 --enable-gnutls --enable-zlib --extra-cflags='-O2 -g -pipe -Wall -Wp,-D_FORTIFY_SOURCE=2 -fexceptions -fstack-protector --param=ssp-buffer-size=4 -m64 -mtune=generic -fPIC'
WARNING: library configuration mismatch
avutil configuration: --prefix=/usr/local/cpffmpeg --enable-shared --enable-nonfree --enable-gpl --enable-pthreads --enable-libopencore-amrnb --enable-decoder=liba52 --enable-libopencore-amrwb --enable-libfaac --enable-libmp3lame --enable-libtheora --enable-libvorbis --enable-libx264 --enable-libxvid --extra-cflags=-I/usr/local/cpffmpeg/include/ --extra-ldflags=-L/usr/local/cpffmpeg/lib --enable-version3 --extra-version=syslint
swscale configuration: --prefix=/usr/local/cpffmpeg --enable-shared --enable-nonfree --enable-gpl --enable-pthreads --enable-libopencore-amrnb --enable-decoder=liba52 --enable-libopencore-amrwb --enable-libfaac --enable-libmp3lame --enable-libtheora --enable-libvorbis --enable-libx264 --enable-libxvid --extra-cflags=-I/usr/local/cpffmpeg/include/ --extra-ldflags=-L/usr/local/cpffmpeg/lib --enable-version3 --extra-version=syslint
swresample configuration: --prefix=/usr/local/cpffmpeg --enable-shared --enable-nonfree --enable-gpl --enable-pthreads --enable-libopencore-amrnb --enable-decoder=liba52 --enable-libopencore-amrwb --enable-libfaac --enable-libmp3lame --enable-libtheora --enable-libvorbis --enable-libx264 --enable-libxvid --extra-cflags=-I/usr/local/cpffmpeg/include/ --extra-ldflags=-L/usr/local/cpffmpeg/lib --enable-version3 --extra-version=syslint
postproc configuration: --prefix=/usr/local/cpffmpeg --enable-shared --enable-nonfree --enable-gpl --enable-pthreads --enable-libopencore-amrnb --enable-decoder=liba52 --enable-libopencore-amrwb --enable-libfaac --enable-libmp3lame --enable-libtheora --enable-libvorbis --enable-libx264 --enable-libxvid --extra-cflags=-I/usr/local/cpffmpeg/include/ --extra-ldflags=-L/usr/local/cpffmpeg/lib --enable-version3 --extra-version=syslint
libavutil 52. 13.100 / 52. 66.101
libavcodec 54. 86.100 / 54. 86.100
libavformat 54. 59.106 / 54. 59.106
libavdevice 54. 3.102 / 54. 3.102
libavfilter 3. 32.100 / 3. 32.100
libswscale 2. 1.103 / 2. 5.101
libswresample 0. 17.102 / 0. 18.100
libpostproc 52. 2.100 / 52. 3.100
Input #0, avi, from '/home/adhi/www/mepvideo/cc-content/uploads/temp/YkXY7FmgsUJSQIXdzHQY.avi':
Metadata:
encoder : Lavf52.39.0
Duration: 00:01:43.17, start: 0.000000, bitrate: 1823 kb/s
Stream #0:0: Video: h264 (Constrained Baseline) (H264 / 0x34363248), yuv420p, 640x480 [SAR 1:1 DAR 4:3], 29.97 fps, 29.97 tbr, 29.97 tbn, 59.94 tbc
Stream #0:1: Audio: mp3 (U[0][0][0] / 0x0055), 44100 Hz, stereo, s16p, 128 kb/s
*** glibc detected *** /usr/bin/ffmpeg: corrupted double-linked list: 0x00000000018b2d40 ***
======= Backtrace: =========
/lib64/libc.so.6[0x3fc8a76166]
/lib64/libc.so.6[0x3fc8a76570]
/lib64/libc.so.6[0x3fc8a79405]
/lib64/libc.so.6[0x3fc8a7adff]
/lib64/libc.so.6(__libc_memalign+0xda)[0x3fc8a7b59a]
/lib64/libc.so.6(posix_memalign+0x39)[0x3fc8a7b7c9]
/usr/local/cpffmpeg/lib/libavutil.so.52(av_malloc+0x4d)[0x7fce84e1e71d]
/usr/local/cpffmpeg/lib/libavutil.so.52(av_mallocz+0x16)[0x7fce84e1e7b6]
/usr/lib64/libavcodec.so.54(+0x47c9b1)[0x7fce85bac9b1]
/usr/lib64/libavcodec.so.54(avcodec_open2+0x8eb)[0x7fce85c5e25b]
/usr/bin/ffmpeg[0x41274b]
/usr/bin/ffmpeg[0x41a204]
/lib64/libc.so.6(__libc_start_main+0xfd)[0x3fc8a1ed1d]
/usr/bin/ffmpeg[0x407279]
======= Memory map: ========
00400000-00429000 r-xp 00000000 fd:00 2652156 /usr/bin/ffmpeg
00628000-0062b000 rw-p 00028000 fd:00 2652156 /usr/bin/ffmpeg
01877000-01ab7000 rw-p 00000000 00:00 0 [heap]
3069400000-3069403000 r-xp 00000000 fd:00 2639504 /usr/lib64/librom1394.so.0.3.0
.bla
.bla
.bla
7fff6a7e7000-7fff6a7fc000 rw-p 00000000 00:00 0 [stack]
7fff6a7ff000-7fff6a800000 r-xp 00000000 00:00 0 [vdso]
ffffffffff600000-ffffffffff601000 r-xp 00000000 00:00 0 [vsyscall]


There is Error on *** glibc detected *** /usr/bin/ffmpeg: corrupted double-linked list: 0x00000000018b2d40 ***
What Must I Do... Thanks Before..

Comments

This discussion has been closed.