Uploaded video's not installing...........

edited March 2013 in Customizations
Sorry Damian, I have been away for a little while, the logs seem to report a "not enough space" dialogue.

* the converter log says;
- the flv is created and moved to the flv folder
- the mobile video is not created
* the file log reports a not enough space error

Hard drive is running at 77% free, running ClearOS


Please see logs below (have been edited due to length);


file.log

==================================================================
FLV ENCODING
==================================================================

FLV Encoding Command: /usr/local/bin/ffmpeg -i /var/www/html/cc-content/uploads/temp/C4qgZ09yQoGBsFuw8m2i.mp4 -s 640x480 -vb 800k -ac 2 -ab 96k -ar 44100 -f flv /var/www/html/cc-content/uploads/flv/C4qgZ09yQoGBsFuw8m2i.flv >> /var/www/html/cc-core/logs/C4qgZ09yQoGBsFuw8m2i.log 2>&1FLV Encoding Output:


ffmpeg version 1.0 Copyright (c) 2000-2012 the FFmpeg developers
built on Jan 18 2013 11:00:16 with gcc 4.4.6 (GCC) 20120305 (Red Hat 4.4.6-4)
configuration: --enable-version3 --enable-libopencore-amrnb --enable-libopencore-amrwb --enable-libvpx --enable-libfaac --enable-libmp3lame --enable-libtheora --enable-libvorbis --enable-libx264 --enable-libvo-aacenc --enable-libxvid --disable-ffplay --enable-shared --enable-gpl --enable-postproc --enable-nonfree --enable-avfilter --enable-pthreads --arch=x86_64 --extra-cflags=-fPIC
libavutil 51. 73.101 / 51. 73.101
libavcodec 54. 59.100 / 54. 59.100
libavformat 54. 29.104 / 54. 29.104
libavdevice 54. 2.101 / 54. 2.101
libavfilter 3. 17.100 / 3. 17.100
libswscale 2. 1.101 / 2. 1.101
libswresample 0. 15.100 / 0. 15.100
libpostproc 52. 0.100 / 52. 0.100
Input #0, mov,mp4,m4a,3gp,3g2,mj2, from '/var/www/html/cc-content/uploads/temp/C4qgZ09yQoGBsFuw8m2i.mp4':
Metadata:
major_brand : mp42
minor_version : 1
compatible_brands: mp42mp41
creation_time : 2009-05-12 05:25:45
title : 2008--County Court Pleas
Duration: 01:10:43.93, start: 0.000000, bitrate: 310 kb/s
Stream #0:0(eng): Video: mpeg4 (Simple Profile) (mp4v / 0x7634706D), yuv420p, 320x240 [SAR 1:1 DAR 4:3], 227 kb/s, 15 fps, 15 tbr, 1500 tbn, 1k tbc

Output #0, flv, to '/var/www/html/cc-content/uploads/flv/C4qgZ09yQoGBsFuw8m2i.flv':
Metadata:
major_brand : mp42
minor_version : 1
compatible_brands: mp42mp41
title : 2008--County Court Pleas
encoder : Lavf54.29.104
Stream #0:0(eng): Video: flv1 ([2][0][0][0] / 0x0002), yuv420p, 640x480 [SAR 1:1 DAR 4:3], q=2-31, 800 kb/s, 1k tbn, 15 tbc
Metadata:
creation_time : 2009-05-12 05:25:45
handler_name : Apple Video Media Handler
Stream #0:1(eng): Audio: mp3 ([2][0][0][0] / 0x0002), 44100 Hz, stereo, s16, 96 kb/s
Metadata:
creation_time : 2009-05-12 05:25:45
handler_name : Apple Sound Media Handler
Stream mapping:
Stream #0:0 -> #0:0 (mpeg4 -> flv)
Stream #0:1 -> #0:1 (aac -> libmp3lame)
Press [q] to stop, [?] for help

av_interleaved_write_frame(): No space left on device




==================================================================
MOBILE ENCODING
==================================================================

Mobile Encoding Command: /usr/local/bin/ffmpeg -i /var/www/html/cc-content/uploads/temp/C4qgZ09yQoGBsFuw8m2i.mp4 -s 480x360 -vb 600k -ac 2 -ab 96k -ar 44100 -f mp4 /var/www/html/cc-content/uploads/mobile/C4qgZ09yQoGBsFuw8m2i_temp.mp4 >> /var/www/html/cc-core/logs/C4qgZ09yQoGBsFuw8m2i.log 2>&1
Mobile Encoding Output:


ffmpeg version 1.0 Copyright (c) 2000-2012 the FFmpeg developers
built on Jan 18 2013 11:00:16 with gcc 4.4.6 (GCC) 20120305 (Red Hat 4.4.6-4)
configuration: --enable-version3 --enable-libopencore-amrnb --enable-libopencore-amrwb --enable-libvpx --enable-libfaac --enable-libmp3lame --enable-libtheora --enable-libvorbis --enable-libx264 --enable-libvo-aacenc --enable-libxvid --disable-ffplay --enable-shared --enable-gpl --enable-postproc --enable-nonfree --enable-avfilter --enable-pthreads --arch=x86_64 --extra-cflags=-fPIC
libavutil 51. 73.101 / 51. 73.101
libavcodec 54. 59.100 / 54. 59.100
libavformat 54. 29.104 / 54. 29.104
libavdevice 54. 2.101 / 54. 2.101
libavfilter 3. 17.100 / 3. 17.100
libswscale 2. 1.101 / 2. 1.101
libswresample 0. 15.100 / 0. 15.100
libpostproc 52. 0.100 / 52. 0.100
Input #0, mov,mp4,m4a,3gp,3g2,mj2, from '/var/www/html/cc-content/uploads/temp/C4qgZ09yQoGBsFuw8m2i.mp4':
Metadata:
major_brand : mp42
minor_version : 1
compatible_brands: mp42mp41
creation_time : 2009-05-12 05:25:45
title : 2008--County Court Pleas
Duration: 01:10:43.93, start: 0.000000, bitrate: 310 kb/s
Stream #0:0(eng): Video: mpeg4 (Simple Profile) (mp4v / 0x7634706D), yuv420p, 320x240 [SAR 1:1 DAR 4:3], 227 kb/s, 15 fps, 15 tbr, 1500 tbn, 1k tbc
Metadata:
creation_time : 2009-05-12 05:25:45
handler_name : Apple Video Media Handler
Stream #0:1(eng): Audio: aac (mp4a / 0x6134706D), 32000 Hz, stereo, s16, 65 kb/s
Metadata:
creation_time : 2009-05-12 05:25:45
handler_name : Apple Sound Media Handler
Stream #0:2(eng): Data: none (mp4s / 0x7334706D)
Metadata:
creation_time : 2009-05-12 05:25:45
handler_name : Apple MPEG-4 Scene Media Handler
Stream #0:3(eng): Data: none (m






CONVERTER.LOG



### Converter Called...
Values passed to encoder:
Array
(
[0] => /var/www/html/cc-core/system/encode.php
[1] => --video=85
)

Validating requested video...
Establishing variables...
Verifying raw video exists...
Verifying raw video was valid size...

Preparing for: FLV Encoding...
FLV Encoding Command: /usr/local/bin/ffmpeg -i /var/www/html/cc-content/uploads/temp/C4qgZ09yQoGBsFuw8m2i.mp4 -s 640x480 -vb 800k -ac 2 -ab 96k -ar 44100 -f flv /var/www/html/cc-content/uploads/flv/C4qgZ09yQoGBsFuw8m2i.flv >> /var/www/html/cc-core/logs/C4qgZ09yQoGBsFuw8m2i.log 2>&1
Verifying FLV video was created...

Preparing for: Mobile Encoding...
Mobile Encoding Command: /usr/local/bin/ffmpeg -i /var/www/html/cc-content/uploads/temp/C4qgZ09yQoGBsFuw8m2i.mp4 -s 480x360 -vb 600k -ac 2 -ab 96k -ar 44100 -f mp4 /var/www/html/cc-content/uploads/mobile/C4qgZ09yQoGBsFuw8m2i_temp.mp4 >> /var/www/html/cc-core/logs/C4qgZ09yQoGBsFuw8m2i.log 2>&1
Verifying temp Mobile file was created...
Could not instantiate mail function.
The temp Mobile file was not created. The id of the video is: 85

Comments

  • The not enough space error I don't know what would cause that other than the obvious - the partition where FFMPEG is writing the new video data to is full. You might want to look up FFMPEG on that one.

    Please post a link to the full logs. Also check to see if there are any PHP errors getting thrown in the PHP error log.
This discussion has been closed.