Just can't make this work in Cpanel

Just installed this and it won't work been reading all day on the forum and can't find a fix!

==================================================================
H.264 ENCODING
==================================================================

H.264 Encoding Command: /home/rivalspo/muskokasnowtrails.com/video/cc-core/system/bin/ffmpeg-64-bit/ffmpeg -i /home/rivalspo/muskokasnowtrails.com/video/cc-content/uploads/temp/G8tLXnxRDqIocf5HylTC.mp4 -vcodec libx264 -vf "scale=min(640\,iw):trunc(ow/a/2)*2" -vb 800k -acodec aac -ab 96k -ar 44100 -f mp4 /home/rivalspo/muskokasnowtrails.com/video/cc-content/uploads/h264/G8tLXnxRDqIocf5HylTC_temp.mp4 >> /home/rivalspo/muskokasnowtrails.com/video/cc-core/logs/G8tLXnxRDqIocf5HylTC.log 2>&1

H.264 Encoding Output:


ffmpeg version 3.3.4-static http://johnvansickle.com/ffmpeg/ Copyright (c) 2000-2017 the FFmpeg developers
built with gcc 6.4.0 (Debian 6.4.0-4) 20170820
configuration: --enable-gpl --enable-version3 --enable-static --disable-debug --disable-ffplay --disable-indev=sndio --disable-outdev=sndio --cc=gcc-6 --enable-fontconfig --enable-frei0r --enable-gnutls --enable-gray --enable-libfribidi --enable-libass --enable-libfreetype --enable-libmp3lame --enable-libopencore-amrnb --enable-libopencore-amrwb --enable-libopenjpeg --enable-librubberband --enable-librtmp --enable-libsoxr --enable-libspeex --enable-libvorbis --enable-libopus --enable-libtheora --enable-libvidstab --enable-libvo-amrwbenc --enable-libvpx --enable-libwebp --enable-libx264 --enable-libx265 --enable-libxvid --enable-libzimg
libavutil 55. 58.100 / 55. 58.100
libavcodec 57. 89.100 / 57. 89.100
libavformat 57. 71.100 / 57. 71.100
libavdevice 57. 6.100 / 57. 6.100
libavfilter 6. 82.100 / 6. 82.100
libswscale 4. 6.100 / 4. 6.100
libswresample 2. 7.100 / 2. 7.100
libpostproc 54. 5.100 / 54. 5.100
Input #0, mov,mp4,m4a,3gp,3g2,mj2, from '/home/rivalspo/muskokasnowtrails.com/video/cc-content/uploads/temp/G8tLXnxRDqIocf5HylTC.mp4':
Metadata:
major_brand : mp42
minor_version : 0
compatible_brands: isommp42
creation_time : 2013-12-24T11:39:35.000000Z
Duration: 00:04:25.31, start: 0.000000, bitrate: 342 kb/s
Stream #0:0(und): Video: h264 (Constrained Baseline) (avc1 / 0x31637661), yuv420p, 320x240, 245 kb/s, 14.99 fps, 14.99 tbr, 30k tbn, 29.97 tbc (default)
Metadata:
handler_name : VideoHandler
Stream #0:1(und): Audio: aac (LC) (mp4a / 0x6134706D), 44100 Hz, stereo, fltp, 95 kb/s (default)
Metadata:
creation_time : 2013-12-24T11:39:36.000000Z
handler_name : IsoMedia File Produced by Google, 5-11-2011
Stream mapping:
Stream #0:0 -> #0:0 (h264 (native) -> h264 (libx264))
Stream #0:1 -> #0:1 (aac (native) -> aac (native))
Press [q] to stop, [?] for help
[libx264 @ 0x5ce3b00] using cpu capabilities: MMX2 SSE2Fast SSSE3 SSE4.2 AVX FMA3 BMI2 AVX2
Error initializing output stream 0:0 -- Error while opening encoder for output stream #0:0 - maybe incorrect parameters such as bit_rate, rate, width or height
[aac @ 0x5cae7e0] Qavg: 47330.418
[aac @ 0x5cae7e0] 2 frames left in the queue on closing
Conversion failed!
Sign In or Register to comment.