Unknown encoder 'libvo_aacenc'

Hello. i am russian
i do not speak english.

i have error

Unknown encoder 'libvo_aacenc'


==================================================================
H.264 ENCODING
==================================================================

H.264 Encoding Command: /var/www/munaev/data/www/video.munaev.ru/cc-core/system/bin/ffmpeg-64-bit/ffmpeg -i /var/www/munaev/data/www/video.munaev.ru/cc-content/uploads/temp/1OxBV7UFQLxb9KMvGjKx.mp4 -vcodec libx264 -vf "scale=min(640\,iw):trunc(ow/a/2)*2" -vb 800k -acodec libvo_aacenc -ab 96k -ar 44100 -f mp4 /var/www/munaev/data/www/video.munaev.ru/cc-content/uploads/h264/1OxBV7UFQLxb9KMvGjKx_temp.mp4 >> /var/www/munaev/data/www/video.munaev.ru/cc-core/logs/1OxBV7UFQLxb9KMvGjKx.log 2>&1

H.264 Encoding Output:


ffmpeg version 3.1-static http://johnvansickle.com/ffmpeg/ Copyright (c) 2000-2016 the FFmpeg developers
built with gcc 5.4.0 (Debian 5.4.0-4) 20160609
configuration: --enable-gpl --enable-version3 --enable-static --disable-debug --enable-libmp3lame --enable-libx264 --enable-libx265 --enable-libwebp --enable-libspeex --enable-libvorbis --enable-libvpx --enable-libfreetype --enable-fontconfig --enable-libxvid --enable-libopencore-amrnb --enable-libopencore-amrwb --enable-libtheora --enable-libvo-amrwbenc --enable-gray --enable-libopenjpeg --enable-libopus --enable-libass --enable-gnutls --enable-libvidstab --enable-libsoxr --enable-frei0r --enable-libfribidi --disable-indev=sndio --disable-outdev=sndio --enable-librtmp --enable-libmfx --enable-libzimg --cc=gcc
libavutil 55. 27.100 / 55. 27.100
libavcodec 57. 48.101 / 57. 48.101
libavformat 57. 40.101 / 57. 40.101
libavdevice 57. 0.101 / 57. 0.101
libavfilter 6. 46.102 / 6. 46.102
libswscale 4. 1.100 / 4. 1.100
libswresample 2. 1.100 / 2. 1.100
libpostproc 54. 0.100 / 54. 0.100
Input #0, mov,mp4,m4a,3gp,3g2,mj2, from '/var/www/munaev/data/www/video.munaev.ru/cc-content/uploads/temp/1OxBV7UFQLxb9KMvGjKx.mp4':
Metadata:
major_brand : mp42
minor_version : 0
compatible_brands: isommp42
creation_time : 2016-03-02 12:33:56
Duration: 00:00:21.06, start: 0.000000, bitrate: 1753 kb/s
Stream #0:0(und): Video: h264 (High) (avc1 / 0x31637661), yuv420p, 1280x720 [SAR 1:1 DAR 16:9], 2798 kb/s, 29.97 fps, 29.97 tbr, 30k tbn, 59.94 tbc (default)
Metadata:
handler_name : VideoHandler
Stream #0:1(und): Audio: aac (LC) (mp4a / 0x6134706D), 44100 Hz, stereo, fltp, 192 kb/s (default)
Metadata:
creation_time : 2016-03-02 12:33:56
handler_name : IsoMedia File Produced by Google, 5-11-2011
Unknown encoder 'libvo_aacenc'


The latest version.
CentOS 7

Comments

This discussion has been closed.