Videos larger than 5mb remains processing forever

I uploaded the video of 1mb and 2mb but when i uploaded video of 8mb and 17mb it is still processing without any error message. I am sending you system log code..Have a look and please help me. Its urgent

KZ1Wow9jEIuaYwBYeybT.log
==================================================================
H.264 ENCODING
==================================================================
H.264 Encoding Command: /home/athletes2015/public_html/videotest/cc-core/system/bin/ffmpeg-64-bit/ffmpeg -i /home/athletes2015/public_html/videotest/cc-content/uploads/temp/KZ1Wow9jEIuaYwBYeybT.flv -vcodec libx264 -vf "scale=min(640\,iw):trunc(ow/a/2)*2" -vb 800k -ab 96k -ar 44100 -f mp4 /home/athletes2015/public_html/videotest/cc-content/uploads/h264/KZ1Wow9jEIuaYwBYeybT_temp.mp4 >> /home/athletes2015/public_html/videotest/cc-core/logs/KZ1Wow9jEIuaYwBYeybT.log 2>&1

H.264 Encoding Output:
ffmpeg version 3.0-static http://johnvansickle.com/ffmpeg/ Copyright (c) 2000-2016 the FFmpeg developers
built with gcc 5.3.1 (Debian 5.3.1-8) 20160205
configuration: --enable-gpl --enable-version3 --disable-shared --disable-debug --enable-runtime-cpudetect --enable-libmp3lame --enable-libx264 --enable-libx265 --enable-libwebp --enable-libspeex --enable-libvorbis --enable-libvpx --enable-libfreetype --enable-fontconfig --enable-libxvid --enable-libopencore-amrnb --enable-libopencore-amrwb --enable-libtheora --enable-libvo-amrwbenc --enable-gray --enable-libopenjpeg --enable-libopus --enable-libass --enable-gnutls --enable-libvidstab --enable-libsoxr --enable-frei0r --enable-libfribidi --disable-indev=sndio --disable-outdev=sndio --enable-librtmp --enable-libmfx --cc=gcc
libavutil 55. 17.103 / 55. 17.103
libavcodec 57. 24.102 / 57. 24.102
libavformat 57. 25.100 / 57. 25.100
libavdevice 57. 0.101 / 57. 0.101
libavfilter 6. 31.100 / 6. 31.100
libswscale 4. 0.100 / 4. 0.100
libswresample 2. 0.101 / 2. 0.101
libpostproc 54. 0.100 / 54. 0.100
Input #0, flv, from '/home/athletes2015/public_html/videotest/cc-content/uploads/temp/KZ1Wow9jEIuaYwBYeybT.flv':
Metadata:
starttime : 0
totalduration : 408
totaldatarate : 344
bytelength : 17552110
canseekontime : true
Duration: 00:06:48.41, start: 0.000000, bitrate: 343 kb/s
Stream #0:0: Video: flv1, yuv420p, 426x240, 277 kb/s, 29.97 fps, 29.97 tbr, 1k tbn, 1k tbc
Stream #0:1: Audio: mp3, 22050 Hz, stereo, s16p, 65 kb/s
[libx264 @ 0x46a0ac0] using cpu capabilities: MMX2 SSE2Fast SSSE3 SSE4.2 AVX
[libx264 @ 0x46a0ac0] profile High, level 2.1
[libx264 @ 0x46a0ac0] 264 - core 148 r236 a01e339 - H.264/MPEG-4 AVC codec - Copyleft 2003-2016 - http://www.videolan.org/x264.html - options: cabac=1 ref=3 deblock=1:0:0 analyse=0x3:0x113 me=hex subme=7 psy=1 psy_rd=1.00:0.00 mixed_ref=1 me_range=16 chroma_me=1 trellis=1 8x8dct=1 cqm=0 deadzone=21,11 fast_pskip=1 chroma_qp_offset=-2 threads=7 lookahead_threads=1 sliced_threads=0 nr=0 decimate=1 interlaced=0 bluray_compat=0 constrained_intra=0 bframes=3 b_pyramid=2 b_adapt=1 b_bias=0 direct=1 weightb=1 open_gop=0 weightp=2 keyint=250 keyint_min=25 scenecut=40 intra_refresh=0 rc_lookahead=40 rc=abr mbtree=1 bitrate=800 ratetol=1.0 qcomp=0.60 qpmin=0 qpmax=69 qpstep=4 ip_ratio=1.40 aq=1:1.00
Output #0, mp4, to '/home/athletes2015/public_html/videotest/cc-content/uploads/h264/KZ1Wow9jEIuaYwBYeybT_temp.mp4':
Metadata:
starttime : 0
totalduration : 408
totaldatarate : 344
bytelength : 17552110
canseekontime : true
encoder : Lavf57.25.100
Stream #0:0: Video: h264 (libx264) ([33][0][0][0] / 0x0021), yuv420p, 426x240, q=-1--1, 800 kb/s, 29.97 fps, 30k tbn, 29.97 tbc
Metadata:
encoder : Lavc57.24.102 libx264
Side data:
unknown side data type 10 (24 bytes)
Stream #0:1: Audio: aac (LC) ([64][0][0][0] / 0x0040), 44100 Hz, stereo, fltp, 96 kb/s
Metadata:
encoder : Lavc57.24.102 aac
Stream mapping:
Stream #0:0 -> #0:0 (flv1 (flv) -> h264 (libx264))
Stream #0:1 -> #0:1 (mp3 (native) -> aac (native))



Comments

  • I don't see any problems with the log file you posted. Can you please also provide converter.log and also the log file for two more videos (one that worked and another that didn't).

    As of right now, it looks like your server can't handle encoding. Are you on a shared host? If not, how much RAM and CPU do you have?

  • converter.log

    // Converter Called...
    Values passed to encoder:
    Array
    (
    [0] => /home/athletes2015/public_html/videotest/cc-core/system/encode.php
    [1] => --video=20
    )


    Checking FFMPEG permissions...

    Checking qt-faststart permissions...
    Validating requested video...
    Establishing variables...
    Verifying raw video exists...
    Verifying raw video was valid size...

    Preparing for: H.264 Encoding...
    H.264 Encoding Command: /home/athletes2015/public_html/videotest/cc-core/system/bin/ffmpeg-64-bit/ffmpeg -i /home/athletes2015/public_html/videotest/cc-content/uploads/temp/KZ1Wow9jEIuaYwBYeybT.flv -vcodec libx264 -vf "scale=min(640\,iw):trunc(ow/a/2)*2" -vb 800k -ab 96k -ar 44100 -f mp4 /home/athletes2015/public_html/videotest/cc-content/uploads/h264/KZ1Wow9jEIuaYwBYeybT_temp.mp4 >> /home/athletes2015/public_html/videotest/cc-core/logs/KZ1Wow9jEIuaYwBYeybT.log 2>&1


    // Converter Called...
    Values passed to encoder:
    Array
    (
    [0] => /home/athletes2015/public_html/videotest/cc-core/system/encode.php
    [1] => --video=21
    )


    Checking FFMPEG permissions...

    Checking qt-faststart permissions...
    Validating requested video...
    Establishing variables...
    Verifying raw video exists...
    Verifying raw video was valid size...

    Preparing for: H.264 Encoding...
    H.264 Encoding Command: /home/athletes2015/public_html/videotest/cc-core/system/bin/ffmpeg-64-bit/ffmpeg -i /home/athletes2015/public_html/videotest/cc-content/uploads/temp/nv2YNnsDIII8n4ohkWAu.mp4 -vcodec libx264 -vf "scale=min(640\,iw):trunc(ow/a/2)*2" -vb 800k -ab 96k -ar 44100 -f mp4 /home/athletes2015/public_html/videotest/cc-content/uploads/h264/nv2YNnsDIII8n4ohkWAu_temp.mp4 >> /home/athletes2015/public_html/videotest/cc-core/logs/nv2YNnsDIII8n4ohkWAu.log 2>&1



  • File that worked:
    ==================================================================
    H.264 ENCODING
    ==================================================================

    H.264 Encoding Command: /home/athletes2015/public_html/videotest/cc-core/system/bin/ffmpeg-64-bit/ffmpeg -i /home/athletes2015/public_html/videotest/cc-content/uploads/temp/ycNSzzeU1fJ2elKbjVRW.flv -vcodec libx264 -vf "scale=min(640\,iw):trunc(ow/a/2)*2" -vb 800k -ab 96k -ar 44100 -f mp4 /home/athletes2015/public_html/videotest/cc-content/uploads/h264/ycNSzzeU1fJ2elKbjVRW_temp.mp4 >> /home/athletes2015/public_html/videotest/cc-core/logs/ycNSzzeU1fJ2elKbjVRW.log 2>&1

    H.264 Encoding Output:


    ffmpeg version 3.0-static http://johnvansickle.com/ffmpeg/ Copyright (c) 2000-2016 the FFmpeg developers
    built with gcc 5.3.1 (Debian 5.3.1-8) 20160205
    configuration: --enable-gpl --enable-version3 --disable-shared --disable-debug --enable-runtime-cpudetect --enable-libmp3lame --enable-libx264 --enable-libx265 --enable-libwebp --enable-libspeex --enable-libvorbis --enable-libvpx --enable-libfreetype --enable-fontconfig --enable-libxvid --enable-libopencore-amrnb --enable-libopencore-amrwb --enable-libtheora --enable-libvo-amrwbenc --enable-gray --enable-libopenjpeg --enable-libopus --enable-libass --enable-gnutls --enable-libvidstab --enable-libsoxr --enable-frei0r --enable-libfribidi --disable-indev=sndio --disable-outdev=sndio --enable-librtmp --enable-libmfx --cc=gcc
    libavutil 55. 17.103 / 55. 17.103
    libavcodec 57. 24.102 / 57. 24.102
    libavformat 57. 25.100 / 57. 25.100
    libavdevice 57. 0.101 / 57. 0.101
    libavfilter 6. 31.100 / 6. 31.100
    libswscale 4. 0.100 / 4. 0.100
    libswresample 2. 0.101 / 2. 0.101
    libpostproc 54. 0.100 / 54. 0.100
    Input #0, flv, from '/home/athletes2015/public_html/videotest/cc-content/uploads/temp/ycNSzzeU1fJ2elKbjVRW.flv':
    Metadata:
    hasCuePoints : false
    lasttimestamp : 13
    hasMetadata : true
    datasize : 1566951
    videosize : 1466254
    hasKeyframes : true
    hasAudio : true
    audiosize : 99377
    metadatacreator : inlet media FLVTool2 v1.0.6 - http://www.inlet-media.de/flvtool2
    lastkeyframetimestamp: 13
    hasVideo : true
    canSeekToEnd : true
    audiodelay : 0
    Duration: 00:00:13.31, start: 0.000000, bitrate: 943 kb/s
    Stream #0:0: Video: flv1, yuv420p, 320x240, 901 kb/s, 29.97 tbr, 1k tbn, 1k tbc
    Stream #0:1: Audio: mp3, 22050 Hz, mono, s16p, 57 kb/s
    [libx264 @ 0x4741320] using cpu capabilities: MMX2 SSE2Fast SSSE3 SSE4.2 AVX
    [libx264 @ 0x4741320] profile High, level 2.0
    [libx264 @ 0x4741320] 264 - core 148 r236 a01e339 - H.264/MPEG-4 AVC codec - Copyleft 2003-2016 - http://www.videolan.org/x264.html - options: cabac=1 ref=3 deblock=1:0:0 analyse=0x3:0x113 me=hex subme=7 psy=1 psy_rd=1.00:0.00 mixed_ref=1 me_range=16 chroma_me=1 trellis=1 8x8dct=1 cqm=0 deadzone=21,11 fast_pskip=1 chroma_qp_offset=-2 threads=7 lookahead_threads=1 sliced_threads=0 nr=0 decimate=1 interlaced=0 bluray_compat=0 constrained_intra=0 bframes=3 b_pyramid=2 b_adapt=1 b_bias=0 direct=1 weightb=1 open_gop=0 weightp=2 keyint=250 keyint_min=25 scenecut=40 intra_refresh=0 rc_lookahead=40 rc=abr mbtree=1 bitrate=800 ratetol=1.0 qcomp=0.60 qpmin=0 qpmax=69 qpstep=4 ip_ratio=1.40 aq=1:1.00
    Output #0, mp4, to '/home/athletes2015/public_html/videotest/cc-content/uploads/h264/ycNSzzeU1fJ2elKbjVRW_temp.mp4':
    Metadata:
    hasCuePoints : false
    lasttimestamp : 13
    hasMetadata : true
    datasize : 1566951
    videosize : 1466254
    hasKeyframes : true
    hasAudio : true
    audiosize : 99377
    metadatacreator : inlet media FLVTool2 v1.0.6 - http://www.inlet-media.de/flvtool2
    lastkeyframetimestamp: 13
    hasVideo : true
    canSeekToEnd : true
    audiodelay : 0
    encoder : Lavf57.25.100
    Stream #0:0: Video: h264 (libx264) ([33][0][0][0] / 0x0021), yuv420p, 320x240, q=-1--1, 800 kb/s, 29.97 fps, 30k tbn, 29.97 tbc
    Metadata:
    encoder : Lavc57.24.102 libx264
    Side data:
    unknown side data type 10 (24 bytes)
    Stream #0:1: Audio: aac (LC) ([64][0][0][0] / 0x0040), 44100 Hz, mono, fltp, 96 kb/s
    Metadata:
    encoder : Lavc57.24.102 aac
    Stream mapping:
    Stream #0:0 -> #0:0 (flv1 (flv) -> h264 (libx264))
    Stream #0:1 -> #0:1 (mp3 (native) -> aac (native))
    Press [q] to stop, [?] for help
    frame= 71 fps=0.0 q=21.0 size= 55kB time=00:00:02.32 bitrate= 194.7kbits/s dup=2 drop=0 speed=4.64x
    frame= 101 fps= 98 q=22.0 size= 174kB time=00:00:03.32 bitrate= 430.0kbits/s dup=2 drop=0 speed=3.23x
    frame= 135 fps= 87 q=21.0 size= 295kB time=00:00:04.45 bitrate= 542.2kbits/s dup=2 drop=0 speed=2.89x
    frame= 163 fps= 80 q=22.0 size= 409kB time=00:00:05.36 bitrate= 624.1kbits/s dup=2 drop=0 speed=2.62x
    frame= 194 fps= 76 q=23.0 size= 543kB time=00:00:06.40 bitrate= 694.3kbits/s dup=2 drop=0 speed=2.51x
    frame= 230 fps= 75 q=24.0 size= 696kB time=00:00:07.61 bitrate= 748.9kbits/s dup=2 drop=0 speed=2.49x
    frame= 259 fps= 73 q=24.0 size= 817kB time=00:00:08.59 bitrate= 779.1kbits/s dup=2 drop=0 speed=2.41x
    frame= 292 fps= 72 q=24.0 size= 932kB time=00:00:09.68 bitrate= 788.3kbits/s dup=2 drop=0 speed=2.38x
    frame= 328 fps= 71 q=24.0 size= 1070kB time=00:00:10.89 bitrate= 804.8kbits/s dup=2 drop=0 speed=2.37x
    frame= 365 fps= 72 q=24.0 size= 1193kB time=00:00:12.12 bitrate= 806.5kbits/s dup=2 drop=0 speed=2.38x
    frame= 397 fps= 71 q=24.0 size= 1298kB time=00:00:13.18 bitrate= 806.2kbits/s dup=2 drop=0 speed=2.34x
    frame= 399 fps= 63 q=-1.0 Lsize= 1480kB time=00:00:13.32 bitrate= 909.8kbits/s dup=2 drop=0 speed=2.11x
    video:1311kB audio:157kB subtitle:0kB other streams:0kB global headers:0kB muxing overhead: 0.868761%
    [libx264 @ 0x4741320] frame I:2 Avg QP:18.29 size: 9920
    [libx264 @ 0x4741320] frame P:366 Avg QP:18.18 size: 3529
    [libx264 @ 0x4741320] frame B:31 Avg QP:21.36 size: 972
    [libx264 @ 0x4741320] consecutive B-frames: 88.0% 2.5% 7.5% 2.0%
    [libx264 @ 0x4741320] mb I I16..4: 0.7% 87.5% 11.8%
    [libx264 @ 0x4741320] mb P I16..4: 0.2% 5.3% 0.3% P16..4: 37.0% 18.8% 16.5% 0.0% 0.0% skip:22.0%
    [libx264 @ 0x4741320] mb B I16..4: 0.0% 0.3% 0.0% B16..8: 39.4% 6.1% 2.4% direct: 6.6% skip:45.1% L0:36.3% L1:35.5% BI:28.2%
    [libx264 @ 0x4741320] final ratefactor: 17.29
    [libx264 @ 0x4741320] 8x8 transform intra:91.1% inter:71.5%
    [libx264 @ 0x4741320] coded y,uvDC,uvAC intra: 84.3% 69.7% 33.3% inter: 35.0% 30.1% 8.2%
    [libx264 @ 0x4741320] i16 v,h,dc,p: 36% 12% 46% 6%
    [libx264 @ 0x4741320] i8 v,h,dc,ddl,ddr,vr,hd,vl,hu: 17% 25% 40% 3% 2% 2% 4% 3% 5%
    [libx264 @ 0x4741320] i4 v,h,dc,ddl,ddr,vr,hd,vl,hu: 20% 28% 14% 5% 6% 5% 7% 6% 8%
    [libx264 @ 0x4741320] i8c dc,h,v,p: 51% 29% 16% 4%
    [libx264 @ 0x4741320] Weighted P-Frames: Y:0.3% UV:0.0%
    [libx264 @ 0x4741320] ref P L0: 79.1% 11.8% 7.0% 2.1% 0.0%
    [libx264 @ 0x4741320] ref B L0: 89.0% 10.0% 0.9%
    [libx264 @ 0x4741320] ref B L1: 92.9% 7.1%
    [libx264 @ 0x4741320] kb/s:806.15
    [aac @ 0x4742280] Qavg: 126.404

  • File worked continued
    ==================================================================
    H.264 SHIFT MOOV ATOM
    ==================================================================

    H.264 Shift Moov Atom Command: /home/athletes2015/public_html/videotest/cc-core/system/bin/ffmpeg-64-bit/qt-faststart /home/athletes2015/public_html/videotest/cc-content/uploads/h264/ycNSzzeU1fJ2elKbjVRW_temp.mp4 /home/athletes2015/public_html/videotest/cc-content/uploads/h264/ycNSzzeU1fJ2elKbjVRW.mp4 >> /home/athletes2015/public_html/videotest/cc-core/logs/ycNSzzeU1fJ2elKbjVRW.log 2>&1

    H.264 Shift Moov Atom Output:


    ftyp 0 32
    free 32 8
    mdat 40 1502723
    moov 1502763 13006
    patching stco atom...
    patching stco atom...
    writing ftyp atom...
    writing moov atom...
    copying rest of file...




    ==================================================================
    Mobile ENCODING
    ==================================================================

    Mobile Encoding Command: /home/athletes2015/public_html/videotest/cc-core/system/bin/ffmpeg-64-bit/ffmpeg -i /home/athletes2015/public_html/videotest/cc-content/uploads/temp/ycNSzzeU1fJ2elKbjVRW.flv -vcodec libx264 -vf "scale=min(480\,iw):trunc(ow/a/2)*2" -vb 600k -ac 2 -ab 96k -ar 44100 -f mp4 /home/athletes2015/public_html/videotest/cc-content/uploads/mobile/ycNSzzeU1fJ2elKbjVRW_temp.mp4 >> /home/athletes2015/public_html/videotest/cc-core/logs/ycNSzzeU1fJ2elKbjVRW.log 2>&1

    Mobile Encoding Output:


    ffmpeg version 3.0-static http://johnvansickle.com/ffmpeg/ Copyright (c) 2000-2016 the FFmpeg developers
    built with gcc 5.3.1 (Debian 5.3.1-8) 20160205
    configuration: --enable-gpl --enable-version3 --disable-shared --disable-debug --enable-runtime-cpudetect --enable-libmp3lame --enable-libx264 --enable-libx265 --enable-libwebp --enable-libspeex --enable-libvorbis --enable-libvpx --enable-libfreetype --enable-fontconfig --enable-libxvid --enable-libopencore-amrnb --enable-libopencore-amrwb --enable-libtheora --enable-libvo-amrwbenc --enable-gray --enable-libopenjpeg --enable-libopus --enable-libass --enable-gnutls --enable-libvidstab --enable-libsoxr --enable-frei0r --enable-libfribidi --disable-indev=sndio --disable-outdev=sndio --enable-librtmp --enable-libmfx --cc=gcc
    libavutil 55. 17.103 / 55. 17.103
    libavcodec 57. 24.102 / 57. 24.102
    libavformat 57. 25.100 / 57. 25.100
    libavdevice 57. 0.101 / 57. 0.101
    libavfilter 6. 31.100 / 6. 31.100
    libswscale 4. 0.100 / 4. 0.100
    libswresample 2. 0.101 / 2. 0.101
    libpostproc 54. 0.100 / 54. 0.100
    Input #0, flv, from '/home/athletes2015/public_html/videotest/cc-content/uploads/temp/ycNSzzeU1fJ2elKbjVRW.flv':
    Metadata:
    hasCuePoints : false
    lasttimestamp : 13
    hasMetadata : true
    datasize : 1566951
    videosize : 1466254
    hasKeyframes : true
    hasAudio : true
    audiosize : 99377
    metadatacreator : inlet media FLVTool2 v1.0.6 - http://www.inlet-media.de/flvtool2
    lastkeyframetimestamp: 13
    hasVideo : true
    canSeekToEnd : true
    audiodelay : 0
    Duration: 00:00:13.31, start: 0.000000, bitrate: 943 kb/s
    Stream #0:0: Video: flv1, yuv420p, 320x240, 901 kb/s, 29.97 tbr, 1k tbn, 1k tbc
    Stream #0:1: Audio: mp3, 22050 Hz, mono, s16p, 57 kb/s
    [libx264 @ 0x3c14340] using cpu capabilities: MMX2 SSE2Fast SSSE3 SSE4.2 AVX
    [libx264 @ 0x3c14340] profile High, level 2.0
    [libx264 @ 0x3c14340] 264 - core 148 r236 a01e339 - H.264/MPEG-4 AVC codec - Copyleft 2003-2016 - http://www.videolan.org/x264.html - options: cabac=1 ref=3 deblock=1:0:0 analyse=0x3:0x113 me=hex subme=7 psy=1 psy_rd=1.00:0.00 mixed_ref=1 me_range=16 chroma_me=1 trellis=1 8x8dct=1 cqm=0 deadzone=21,11 fast_pskip=1 chroma_qp_offset=-2 threads=7 lookahead_threads=1 sliced_threads=0 nr=0 decimate=1 interlaced=0 bluray_compat=0 constrained_intra=0 bframes=3 b_pyramid=2 b_adapt=1 b_bias=0 direct=1 weightb=1 open_gop=0 weightp=2 keyint=250 keyint_min=25 scenecut=40 intra_refresh=0 rc_lookahead=40 rc=abr mbtree=1 bitrate=600 ratetol=1.0 qcomp=0.60 qpmin=0 qpmax=69 qpstep=4 ip_ratio=1.40 aq=1:1.00
    Output #0, mp4, to '/home/athletes2015/public_html/videotest/cc-content/uploads/mobile/ycNSzzeU1fJ2elKbjVRW_temp.mp4':
    Metadata:
    hasCuePoints : false
    lasttimestamp : 13
    hasMetadata : true
    datasize : 1566951
    videosize : 1466254
    hasKeyframes : true
    hasAudio : true
    audiosize : 99377
    metadatacreator : inlet media FLVTool2 v1.0.6 - http://www.inlet-media.de/flvtool2
    lastkeyframetimestamp: 13
    hasVideo : true
    canSeekToEnd : true
    audiodelay : 0
    encoder : Lavf57.25.100
    Stream #0:0: Video: h264 (libx264) ([33][0][0][0] / 0x0021), yuv420p, 320x240, q=-1--1, 600 kb/s, 29.97 fps, 30k tbn, 29.97 tbc
    Metadata:
    encoder : Lavc57.24.102 libx264
    Side data:
    unknown side data type 10 (24 bytes)
    Stream #0:1: Audio: aac (LC) ([64][0][0][0] / 0x0040), 44100 Hz, stereo, fltp, 96 kb/s
    Metadata:
    encoder : Lavc57.24.102 aac
    Stream mapping:
    Stream #0:0 -> #0:0 (flv1 (flv) -> h264 (libx264))
    Stream #0:1 -> #0:1 (mp3 (native) -> aac (native))




  • File worked continued:
    ==================================================================
    FASTSTART
    ==================================================================

    Faststart Command: /home/athletes2015/public_html/videotest/cc-core/system/bin/ffmpeg-64-bit/qt-faststart /home/athletes2015/public_html/videotest/cc-content/uploads/mobile/ycNSzzeU1fJ2elKbjVRW_temp.mp4 /home/athletes2015/public_html/videotest/cc-content/uploads/mobile/ycNSzzeU1fJ2elKbjVRW.mp4 >> /home/athletes2015/public_html/videotest/cc-core/logs/ycNSzzeU1fJ2elKbjVRW.log 2>&1Faststart Output:


    ftyp 0 32
    free 32 8
    mdat 40 1165587
    moov 1165627 13006
    patching stco atom...
    patching stco atom...
    writing ftyp atom...
    writing moov atom...
    copying rest of file...




    ==================================================================
    THUMB CREATION
    ==================================================================

    Thumb Creation Command: /home/athletes2015/public_html/videotest/cc-core/system/bin/ffmpeg-64-bit/ffmpeg -i /home/athletes2015/public_html/videotest/cc-content/uploads/temp/ycNSzzeU1fJ2elKbjVRW.flv -ss 7 -vf "scale=min(640\,iw):trunc(ow/a/2)*2" -t 1 -r 1 -f mjpeg /home/athletes2015/public_html/videotest/cc-content/uploads/thumbs/ycNSzzeU1fJ2elKbjVRW.jpg >> /home/athletes2015/public_html/videotest/cc-core/logs/ycNSzzeU1fJ2elKbjVRW.log 2>&1Thumb Creation Output:


    ffmpeg version 3.0-static http://johnvansickle.com/ffmpeg/ Copyright (c) 2000-2016 the FFmpeg developers
    built with gcc 5.3.1 (Debian 5.3.1-8) 20160205
    configuration: --enable-gpl --enable-version3 --disable-shared --disable-debug --enable-runtime-cpudetect --enable-libmp3lame --enable-libx264 --enable-libx265 --enable-libwebp --enable-libspeex --enable-libvorbis --enable-libvpx --enable-libfreetype --enable-fontconfig --enable-libxvid --enable-libopencore-amrnb --enable-libopencore-amrwb --enable-libtheora --enable-libvo-amrwbenc --enable-gray --enable-libopenjpeg --enable-libopus --enable-libass --enable-gnutls --enable-libvidstab --enable-libsoxr --enable-frei0r --enable-libfribidi --disable-indev=sndio --disable-outdev=sndio --enable-librtmp --enable-libmfx --cc=gcc
    libavutil 55. 17.103 / 55. 17.103
    libavcodec 57. 24.102 / 57. 24.102
    libavformat 57. 25.100 / 57. 25.100
    libavdevice 57. 0.101 / 57. 0.101
    libavfilter 6. 31.100 / 6. 31.100
    libswscale 4. 0.100 / 4. 0.100
    libswresample 2. 0.101 / 2. 0.101
    libpostproc 54. 0.100 / 54. 0.100
    Input #0, flv, from '/home/athletes2015/public_html/videotest/cc-content/uploads/temp/ycNSzzeU1fJ2elKbjVRW.flv':
    Metadata:
    hasCuePoints : false
    lasttimestamp : 13
    hasMetadata : true
    datasize : 1566951
    videosize : 1466254
    hasKeyframes : true
    hasAudio : true
    audiosize : 99377
    metadatacreator : inlet media FLVTool2 v1.0.6 - http://www.inlet-media.de/flvtool2
    lastkeyframetimestamp: 13
    hasVideo : true
    canSeekToEnd : true
    audiodelay : 0
    Duration: 00:00:13.31, start: 0.000000, bitrate: 943 kb/s
    Stream #0:0: Video: flv1, yuv420p, 320x240, 901 kb/s, 29.97 tbr, 1k tbn, 1k tbc
    Stream #0:1: Audio: mp3, 22050 Hz, mono, s16p, 57 kb/s
    [swscaler @ 0x4241620] deprecated pixel format used, make sure you did set range correctly
    Output #0, mjpeg, to '/home/athletes2015/public_html/videotest/cc-content/uploads/thumbs/ycNSzzeU1fJ2elKbjVRW.jpg':
    Metadata:
    hasCuePoints : false
    lasttimestamp : 13
    hasMetadata : true
    datasize : 1566951
    videosize : 1466254
    hasKeyframes : true
    hasAudio : true
    audiosize : 99377
    metadatacreator : inlet media FLVTool2 v1.0.6 - http://www.inlet-media.de/flvtool2
    lastkeyframetimestamp: 13
    hasVideo : true
    canSeekToEnd : true
    audiodelay : 0
    encoder : Lavf57.25.100
    Stream #0:0: Video: mjpeg, yuvj420p(pc), 320x240, q=2-31, 200 kb/s, 1 fps, 1 tbn, 1 tbc
    Metadata:
    encoder : Lavc57.24.102 mjpeg
    Side data:
    unknown side data type 10 (24 bytes)
    Stream mapping:
    Stream #0:0 -> #0:0 (flv1 (flv) -> mjpeg (native))
    Press [q] to stop, [?] for help
    frame= 1 fps=0.0 q=3.5 Lsize= 9kB time=00:00:01.00 bitrate= 73.6kbits/s speed=8.73x
    video:9kB audio:0kB subtitle:0kB other streams:0kB global headers:0kB muxing overhead: 0.000000%

  • FILE THAT DIDN'T WORKED:
    ==================================================================
    H.264 ENCODING
    ==================================================================

    H.264 Encoding Command: /home/athletes2015/public_html/videotest/cc-core/system/bin/ffmpeg-64-bit/ffmpeg -i /home/athletes2015/public_html/videotest/cc-content/uploads/temp/XRKZviRdhUdgso2CV9JV.flv -vcodec libx264 -vf "scale=min(640\,iw):trunc(ow/a/2)*2" -vb 800k -ab 96k -ar 44100 -f mp4 /home/athletes2015/public_html/videotest/cc-content/uploads/h264/XRKZviRdhUdgso2CV9JV_temp.mp4 >> /home/athletes2015/public_html/videotest/cc-core/logs/XRKZviRdhUdgso2CV9JV.log 2>&1

    H.264 Encoding Output:


    ffmpeg version 3.0-static http://johnvansickle.com/ffmpeg/ Copyright (c) 2000-2016 the FFmpeg developers
    built with gcc 5.3.1 (Debian 5.3.1-8) 20160205
    configuration: --enable-gpl --enable-version3 --disable-shared --disable-debug --enable-runtime-cpudetect --enable-libmp3lame --enable-libx264 --enable-libx265 --enable-libwebp --enable-libspeex --enable-libvorbis --enable-libvpx --enable-libfreetype --enable-fontconfig --enable-libxvid --enable-libopencore-amrnb --enable-libopencore-amrwb --enable-libtheora --enable-libvo-amrwbenc --enable-gray --enable-libopenjpeg --enable-libopus --enable-libass --enable-gnutls --enable-libvidstab --enable-libsoxr --enable-frei0r --enable-libfribidi --disable-indev=sndio --disable-outdev=sndio --enable-librtmp --enable-libmfx --cc=gcc
    libavutil 55. 17.103 / 55. 17.103
    libavcodec 57. 24.102 / 57. 24.102
    libavformat 57. 25.100 / 57. 25.100
    libavdevice 57. 0.101 / 57. 0.101
    libavfilter 6. 31.100 / 6. 31.100
    libswscale 4. 0.100 / 4. 0.100
    libswresample 2. 0.101 / 2. 0.101
    libpostproc 54. 0.100 / 54. 0.100
    Input #0, flv, from '/home/athletes2015/public_html/videotest/cc-content/uploads/temp/XRKZviRdhUdgso2CV9JV.flv':
    Metadata:
    starttime : 0
    totalduration : 136
    totaldatarate : 527
    bytelength : 8927035
    canseekontime : true
    Duration: 00:02:15.54, start: 0.000000, bitrate: 526 kb/s
    Stream #0:0: Video: flv1, yuv420p, 400x226, 470 kb/s, 29.92 fps, 29.92 tbr, 1k tbn, 1k tbc
    Stream #0:1: Audio: mp3, 22050 Hz, stereo, s16p, 60 kb/s
    [libx264 @ 0x3daf680] using cpu capabilities: MMX2 SSE2Fast SSSE3 SSE4.2 AVX
    [libx264 @ 0x3daf680] profile High, level 2.0
    [libx264 @ 0x3daf680] 264 - core 148 r236 a01e339 - H.264/MPEG-4 AVC codec - Copyleft 2003-2016 - http://www.videolan.org/x264.html - options: cabac=1 ref=3 deblock=1:0:0 analyse=0x3:0x113 me=hex subme=7 psy=1 psy_rd=1.00:0.00 mixed_ref=1 me_range=16 chroma_me=1 trellis=1 8x8dct=1 cqm=0 deadzone=21,11 fast_pskip=1 chroma_qp_offset=-2 threads=7 lookahead_threads=1 sliced_threads=0 nr=0 decimate=1 interlaced=0 bluray_compat=0 constrained_intra=0 bframes=3 b_pyramid=2 b_adapt=1 b_bias=0 direct=1 weightb=1 open_gop=0 weightp=2 keyint=250 keyint_min=25 scenecut=40 intra_refresh=0 rc_lookahead=40 rc=abr mbtree=1 bitrate=800 ratetol=1.0 qcomp=0.60 qpmin=0 qpmax=69 qpstep=4 ip_ratio=1.40 aq=1:1.00
    Output #0, mp4, to '/home/athletes2015/public_html/videotest/cc-content/uploads/h264/XRKZviRdhUdgso2CV9JV_temp.mp4':
    Metadata:
    starttime : 0
    totalduration : 136
    totaldatarate : 527
    bytelength : 8927035
    canseekontime : true
    encoder : Lavf57.25.100
    Stream #0:0: Video: h264 (libx264) ([33][0][0][0] / 0x0021), yuv420p, 400x226, q=-1--1, 800 kb/s, 29.92 fps, 11488 tbn, 29.92 tbc
    Metadata:
    encoder : Lavc57.24.102 libx264
    Side data:
    unknown side data type 10 (24 bytes)
    Stream #0:1: Audio: aac (LC) ([64][0][0][0] / 0x0040), 44100 Hz, stereo, fltp, 96 kb/s
    Metadata:
    encoder : Lavc57.24.102 aac
    Stream mapping:
    Stream #0:0 -> #0:0 (flv1 (flv) -> h264 (libx264))
    Stream #0:1 -> #0:1 (mp3 (native) -> aac (native))
    Press [q] to stop, [?] for help

  • RAM INFO: 512MB... 74Mb in use
    CPU INFO: 0% used.
  • Sorry forgot to mention it's shared host..
  • Your server is the problem. It has too little RAM. With 512MB of RAM I'm surprised you were able to encode any videos at all, even small ones.

    You need to switch to a cloud, VPS, or dedicated server with at least 2GB of RAM. See this link for more information about hosting: http://cumulusclips.org/hosting/

    I recommend our commercial version: https://www.cumulusclips.com/ if you are not a techincal person. With that, we take care of the technical problems like encoding, servers, etc., and you get free support.
  • Thank you so much for the assistance. I will come back to you if I face any further problems.
This discussion has been closed.