Video Upload H264 Error

Please Help




==================================================================
H.264 ENCODING
==================================================================

H.264 Encoding Command: /usr/bin/ffmpeg -i /home/adminadm/public_html/revshareent.com/Portal/cc-content/uploads/temp/JUihfmnLFBFapgXFdGNT.mp4 -vcodec libx264 -vf "scale=min(640\,iw):trunc(ow/a/2)*2" -vb 800k -acodec libfaac -ab 96k -ar 44100 -f mp4 /home/adminadm/public_html/revshareent.com/Portal/cc-content/uploads/h264/JUihfmnLFBFapgXFdGNT_temp.mp4 >> /home/adminadm/public_html/revshareent.com/Portal/cc-core/logs/JUihfmnLFBFapgXFdGNT.log 2>&1

H.264 Encoding Output:


FFmpeg version 0.6.5, Copyright (c) 2000-2010 the FFmpeg developers
built on Jan 29 2012 17:52:15 with gcc 4.4.5 20110214 (Red Hat 4.4.5-6)
configuration: --prefix=/usr --libdir=/usr/lib64 --shlibdir=/usr/lib64 --mandir=/usr/share/man --incdir=/usr/include --disable-avisynth --extra-cflags='-O2 -g -pipe -Wall -Wp,-D_FORTIFY_SOURCE=2 -fexceptions -fstack-protector --param=ssp-buffer-size=4 -m64 -mtune=generic -fPIC' --enable-avfilter --enable-avfilter-lavf --enable-libdc1394 --enable-libdirac --enable-libfaac --enable-libfaad --enable-libfaadbin --enable-libgsm --enable-libmp3lame --enable-libopencore-amrnb --enable-libopencore-amrwb --enable-librtmp --enable-libschroedinger --enable-libspeex --enable-libtheora --enable-libx264 --enable-gpl --enable-nonfree --enable-postproc --enable-pthreads --enable-shared --enable-swscale --enable-vdpau --enable-version3 --enable-x11grab
libavutil 50.15. 1 / 50.15. 1
libavcodec 52.72. 2 / 52.72. 2
libavformat 52.64. 2 / 52.64. 2
libavdevice 52. 2. 0 / 52. 2. 0
libavfilter 1.19. 0 / 1.19. 0
libswscale 0.11. 0 / 0.11. 0
libpostproc 51. 2. 0 / 51. 2. 0
Input #0, mov,mp4,m4a,3gp,3g2,mj2, from '/home/adminadm/public_html/revshareent.com/Portal/cc-content/uploads/temp/JUihfmnLFBFapgXFdGNT.mp4':
Metadata:
major_brand : isom
minor_version : 512
compatible_brands: isomiso2avc1mp41
title : 10206988455611950
encoder : Lavf56.4.101
Duration: 00:04:50.01, start: 0.-161134, bitrate: 335 kb/s
Stream #0.0(und): Video: h264, yuv420p, 426x234 [PAR 2602:2607 DAR 184742:101673], 280 kb/s, PAR 471835:473854 DAR 36295:20022, 30 fps, 30 tbr, 15360 tbn, 60 tbc
Stream #0.1(und): Audio: aac, 44100 Hz, 2 channels (FC), s16, 48 kb/s
Unrecognized option 'vf'

Comments

  • You're using an old version of FFMPEG. Please follow the instructions in the following post to upgrade to the latest version:

    http://cumulusclips.org/forums/index.php?p=/discussion/1370/how-to-use-static-ffmpeg-build-with-cumulusclip
  • I upgraded to the newest version:
    ==================================================================
    H.264 ENCODING
    ==================================================================

    H.264 Encoding Command: /home/adminadm/public_html/revshareent.com/Portal/cc-core/system/ffmpeg -i /home/adminadm/public_html/revshareent.com/Portal/cc-content/uploads/temp/27unbfsYCfQEr1Fse7uo.mp4 -vcodec libx264 -vf "scale=min(640\,iw):trunc(ow/a/2)*2" -vb 800k -acodec libvo_aacenc -ab 96k -ar 44100 -f mp4 /home/adminadm/public_html/revshareent.com/Portal/cc-content/uploads/h264/27unbfsYCfQEr1Fse7uo_temp.mp4 >> /home/adminadm/public_html/revshareent.com/Portal/cc-core/logs/27unbfsYCfQEr1Fse7uo.log 2>&1

    H.264 Encoding Output:


    ffmpeg version 2.7.2-static http://johnvansickle.com/ffmpeg/ Copyright (c) 2000-2015 the FFmpeg developers
    built with gcc 4.9.3 (Debian 4.9.3-1)
    configuration: --enable-gpl --enable-version3 --disable-shared --disable-debug --enable-runtime-cpudetect --enable-libmp3lame --enable-libx264 --enable-libx265 --enable-libwebp --enable-libspeex --enable-libvorbis --enable-libvpx --enable-libfreetype --enable-fontconfig --enable-libxvid --enable-libopencore-amrnb --enable-libopencore-amrwb --enable-libtheora --enable-libvo-aacenc --enable-libvo-amrwbenc --enable-gray --enable-libopenjpeg --enable-libopus --enable-libass --enable-gnutls --enable-libvidstab --enable-libsoxr --cc=gcc-4.9
    libavutil 54. 27.100 / 54. 27.100
    libavcodec 56. 41.100 / 56. 41.100
    libavformat 56. 36.100 / 56. 36.100
    libavdevice 56. 4.100 / 56. 4.100
    libavfilter 5. 16.101 / 5. 16.101
    libswscale 3. 1.101 / 3. 1.101
    libswresample 1. 2.100 / 1. 2.100
    libpostproc 53. 3.100 / 53. 3.100
    Input #0, mov,mp4,m4a,3gp,3g2,mj2, from '/home/adminadm/public_html/revshareent.com/Portal/cc-content/uploads/temp/27unbfsYCfQEr1Fse7uo.mp4':
    Metadata:
    major_brand : isom
    minor_version : 512
    compatible_brands: isomiso2avc1mp41
    title : 10206988455611950
    encoder : Lavf56.4.101
    Duration: 00:04:50.02, start: 0.161134, bitrate: 335 kb/s
    Stream #0:0(und): Video: h264 (Main) (avc1 / 0x31637661), yuv420p, 426x234 [SAR 2602:2607 DAR 184742:101673], 280 kb/s, SAR 16653:16685 DAR 427:235, 30 fps, 30 tbr, 15360 tbn, 60 tbc (default)
    Metadata:
    handler_name : VideoHandler
    Stream #0:1(und): Audio: aac (HE-AACv2) (mp4a / 0x6134706D), 44100 Hz, stereo, fltp, 48 kb/s (default)
    Metadata:
    handler_name : SoundHandler
    [AVFilterGraph @ 0xb2ccb60] Error initializing threading.
    [AVFilterGraph @ 0xb2ccb60] Error creating filter 'anull'
    Error opening filters!
  • Notice these errors in your log:

    handler_name : SoundHandler
    [AVFilterGraph @ 0xb2ccb60] Error initializing threading.
    [AVFilterGraph @ 0xb2ccb60] Error creating filter 'anull'
    Error opening filters!

    Do you get those errors for all videos you try to upload? Try reuploading the same video, also try a different video and let's compare the results.

    Addtionally, the 'Error initializing threading' error is server related and may go away on it's own.

    Two questions,

    1) Are you on a dedicated server (Dedicated, VPS, Cloud Server, etc)? If not, who is your web host?

    2) Which version of the FFMPEG file did you download from the website?
  • i got it to work with a test vid ..used the 32bit drivers and aac ...thankyou
  • When using INCOGNITO I tried to add a new account going to one of my other gmail address. The link sent to me via email bought me to MY PERSONAL admin page NOT the DUMMY Account
  • When you clicked the link, did the window open in the incognito window or the window where you were already logged in as admin?
This discussion has been closed.