new install

Hi all
i just installed and can not upload videos i have looked at lots other post on this but nothing seams to fix my problem

i find one post on update ffmpeg and on try that with yum it says i have latest version

but my error logs say

converter log

// Converter Called...
Values passed to encoder:
Array
(
[0] => /home/thenaugh/public_html/vids/cc-core/system/encode.php
[1] => --video=3
)

Validating requested video...
Establishing variables...
Verifying raw video exists...
Verifying raw video was valid size...

Preparing for: H.264 Encoding...
H.264 Encoding Command: /usr/bin/ffmpeg -i /home/thenaugh/public_html/vids/cc-content/uploads/temp/wbFZNerDYBkI9xcZOX8q.mp4 -vcodec libx264 -vf "scale=min(640\,iw):trunc(ow/a/2)*2" -vb 800k -acodec libfaac -ab 96k -ar 44100 -f mp4 /home/thenaugh/public_html/vids/cc-content/uploads/h264/wbFZNerDYBkI9xcZOX8q_temp.mp4 >> /home/thenaugh/public_html/vids/cc-core/logs/wbFZNerDYBkI9xcZOX8q.log 2>&1
Verifying H.264 video was created...
The temp H.264 file was not created. The id of the video is: 3


encoding log

H.264 ENCODING
==================================================================

H.264 Encoding Command: /usr/bin/ffmpeg -i /home/thenaugh/public_html/vids/cc-content/uploads/temp/wbFZNerDYBkI9xcZOX8q.mp4 -vcodec libx264 -vf "scale=min(640\,iw):trunc(ow/a/2)*2" -vb 800k -acodec libfaac -ab 96k -ar 44100 -f mp4 /home/thenaugh/public_html/vids/cc-content/uploads/h264/wbFZNerDYBkI9xcZOX8q_temp.mp4 >> /home/thenaugh/public_html/vids/cc-core/logs/wbFZNerDYBkI9xcZOX8q.log 2>&1

H.264 Encoding Output:


FFmpeg version 0.6.5, Copyright (c) 2000-2010 the FFmpeg developers
built on Jan 29 2012 17:52:15 with gcc 4.4.5 20110214 (Red Hat 4.4.5-6)
configuration: --prefix=/usr --libdir=/usr/lib64 --shlibdir=/usr/lib64 --mandir=/usr/share/man --incdir=/usr/include --disable-avisynth --extra-cflags='-O2 -g -pipe -Wall -Wp,-D_FORTIFY_SOURCE=2 -fexceptions -fstack-protector --param=ssp-buffer-size=4 -m64 -mtune=generic -fPIC' --enable-avfilter --enable-avfilter-lavf --enable-libdc1394 --enable-libdirac --enable-libfaac --enable-libfaad --enable-libfaadbin --enable-libgsm --enable-libmp3lame --enable-libopencore-amrnb --enable-libopencore-amrwb --enable-librtmp --enable-libschroedinger --enable-libspeex --enable-libtheora --enable-libx264 --enable-gpl --enable-nonfree --enable-postproc --enable-pthreads --enable-shared --enable-swscale --enable-vdpau --enable-version3 --enable-x11grab
libavutil 50.15. 1 / 50.15. 1
libavcodec 52.72. 2 / 52.72. 2
libavformat 52.64. 2 / 52.64. 2
libavdevice 52. 2. 0 / 52. 2. 0
libavfilter 1.19. 0 / 1.19. 0
libswscale 0.11. 0 / 0.11. 0
libpostproc 51. 2. 0 / 51. 2. 0
Input #0, mov,mp4,m4a,3gp,3g2,mj2, from '/home/thenaugh/public_html/vids/cc-content/uploads/temp/wbFZNerDYBkI9xcZOX8q.mp4':
Metadata:
major_brand : isom
minor_version : 512
compatible_brands: isomiso2avc1mp41
encoder : Lavf54.63.104
Duration: 00:00:25.95, start: 0.000000, bitrate: 923 kb/s
Stream #0.0(und): Video: h264, yuv420p, 320x240 [PAR 1:1 DAR 4:3], 804 kb/s, 23.98 fps, 23.98 tbr, 24k tbn, 47.95 tbc
Stream #0.1(und): Audio: aac, 44100 Hz, stereo, s16, 128 kb/s
Unrecognized option 'vf'

Comments

  • It would be our pleasure to help, but first can you share your website address with us. Use of our software for adult content is strictly prohibited. We would like to verify your site before we continue.
  • You're running a very old version of ffmpeg (2010) that does not honor the -vf flag. It might be possible to find the alternative switch for that version, but I am guessing that will lead you down a rabbit hole where you get one step further, only to get yet another error. If you have the capability to do so, I recommend you upgrade to a more recent version.
This discussion has been closed.